logo

Forrest Gump (1994) x 1606 (2160p) HDR 5.1 x265 10bit Phun Psyz

  • Category Movies
  • Type UHD
  • Language English
  • Total size 5.2 GB
  • Uploaded By PhunPsyz
  • Downloads 168
  • Last checked 3 days ago
  • Date uploaded 1 week ago
  • Seeders 6
  • Leechers 1

Infohash : F52EAD2D5ABEB83ADC48C4C4223B2F3D5AEB126D

www.imdb.com/title/tt0109830

The presidencies of Kennedy and Johnson, Vietnam, Watergate, and other history unfold through the perspective of an Alabama man with an IQ of 75.

Source: IAMABLE (HDR) (31.9 GiB)

Download Forrest Gump (1994) x 1606 (2160p) HDR 5.1 x265 10bit Phun Psyz Torrent Download Forrest Gump (1994) x 1606 (2160p) HDR 5.1 x265 10bit Phun Psyz Torrent Download Forrest Gump (1994) x 1606 (2160p) HDR 5.1 x265 10bit Phun Psyz Torrent Download Forrest Gump (1994) x 1606 (2160p) HDR 5.1 x265 10bit Phun Psyz Torrent Download Forrest Gump (1994) x 1606 (2160p) HDR 5.1 x265 10bit Phun Psyz Torrent

Format : Matroska
Format version : Version 4 / Version 2
File size : 5.25 GiB
Duration : 2 h 22 min
Overall bit rate : 5 286 kb/s

Video
ID : 1
Format : HEVC
Format/Info : High Efficiency Video Coding
Format profile : Main [email protected]@High
Codec ID : V_MPEGH/ISO/HEVC
Duration : 2 h 22 min
Bit rate : 4 861 kb/s
Width : 3 840 pixels
Height : 1 606 pixels
Display aspect ratio : 2.40:1
Frame rate mode : Constant
Frame rate : 23.976 (24000/1001) FPS
Color space : YUV
Chroma subsampling : 4:2:0
Bit depth : 10 bits
Bits/(Pixel*Frame) : 0.033
Stream size : 4.83 GiB (92%)
Writing library : x265 2.6:[Windows][GCC 7.1.0][64 bit] 10bit

Audio
ID : 2
Format : AC-3
Format/Info : Audio Coding 3
Format settings, Endianness : Big
Codec ID : A_AC3
Duration : 2 h 22 min
Bit rate mode : Constant
Bit rate : 320 kb/s
Channel(s) : 6 channels
Channel positions : Front: L C R, Side: L R, LFE
Sampling rate : 48.0 kHz
Frame rate : 31.250 FPS (1536 SPF)
Bit depth : 16 bits
Compression mode : Lossy
Stream size : 325 MiB (6%)
Title : Surround
Language : English

Text
Language : English
Language : English
Language : English
Language : English
Language : English
Language : English
Language : English
Language : French
Language : French
Language : French
Language : Spanish
Language : Spanish
Language : Spanish
Language : Spanish
Language : Spanish
Language : Spanish
Language : Portuguese
Language : Portuguese
Language : Portuguese
Language : Italian
Language : Italian
Language : Italian
Language : German
Language : German
Language : German
Language : Dutch
Language : Swedish
Language : Norwegian
Language : Danish
Language : Finnish
Language : Japanese
Language : Japanese
Language : Japanese
Default : No
Forced : No

Files:

  • Forrest Gump (1994) x 1606 (2160p) HDR 5.1 x265 10bit Phun Psyz.mkv (5.2 GB)

There are currently no comments. Feel free to leave one :)

Code:

  • udp://public.popcorn-tracker.org:6969/announce
  • udp://tracker.leechers-paradise.org:6969/announce
  • udp://tracker.pirateparty.gr:6969/announce
  • udp://tracker.internetwarriors.net:1337/announce
  • udp://inferno.demonoid.pw:3391/announce
  • http://explodie.org:6969/announce
  • http://mgtracker.org:6969/announce
  • udp://tracker.coppersurfer.tk:6969/announce
  • http://tracker.opentrackr.org/announce
  • udp://tracker.tiny-vps.com:6969/announce