logo

Irumbu Thirai (2018) Tamil - 720p - HDTV - x264 - 2.7GB - AAC - M...

  • Category Movies
  • Type HD
  • Language Tamil
  • Total size 2.8 GB
  • Uploaded By MovCr
  • Downloads 73
  • Last checked 2 days ago
  • Date uploaded 1 week ago
  • Seeders 11
  • Leechers 2

Irumbu Thirai

ThrillerAction

Irumbu Thirai is an upcoming Indian Tamil-language action thriller film directed by P. S. Mithran.

Infohash : EF722549E1208B5124B93E6D39D44619E359D464

http://movcr.com

Irumbu Thirai (2018) Tamil - 720p - HDTV - x264 - 2.7GB - AAC - MovCr
Download Irumbu Thirai (2018) Tamil - 720p - HDTV - x264 - 2.7GB - AAC - MovCr Torrent

Video
ID : 1
Format : AVC
Format/Info : Advanced Video Codec
Format profile : [email protected]
Format settings, CABAC : Yes
Format settings, ReFrames : 4 frames
Format settings, GOP : M=8, N=24
Codec ID : V_MPEG4/ISO/AVC
Duration : 2 h 34 min
Bit rate : 2 485 kb/s
Width : 1 280 pixels
Height : 720 pixels
Display aspect ratio : 16:9
Frame rate mode : Constant
Frame rate : 25.000 FPS
Color space : YUV
Chroma subsampling : 4:2:0
Bit depth : 8 bits
Scan type : Progressive
Bits/(Pixel*Frame) : 0.108
Stream size : 2.68 GiB (96%)
Title : www.MovCr.com
Default : Yes
Forced : No
Color range : Limited
Color primaries : BT.709
Transfer characteristics : BT.709
Matrix coefficients : BT.709

Audio
ID : 2
Format : AAC
Format/Info : Advanced Audio Codec
Format profile : LC
Codec ID : A_AAC
Duration : 2 h 34 min
Bit rate : 96.0 kb/s
Channel(s) : 2 channels
Channel positions : Front: L R
Sampling rate : 48.0 kHz
Frame rate : 46.875 FPS (1024 spf)
Compression mode : Lossy
Stream size : 106 MiB (4%)
Title : www.MovCr.com
Language : Tamil
Default : Yes
Forced : No

Download Irumbu Thirai (2018) Tamil - 720p - HDTV - x264 - 2.7GB - AAC - MovCr Torrent Download Irumbu Thirai (2018) Tamil - 720p - HDTV - x264 - 2.7GB - AAC - MovCr Torrent Download Irumbu Thirai (2018) Tamil - 720p - HDTV - x264 - 2.7GB - AAC - MovCr Torrent

Files:

  • [MovCr.com] - Irumbu Thirai (2018) Tamil - 720p - HDTV - x264 - 2.7GB - AAC - MovCr.mkv (2.8 GB)

There are currently no comments. Feel free to leave one :)

Code:

  • udp://tracker.coppersurfer.tk:6969/announce
  • udp://tracker.opentrackr.org:1337/announce
  • udp://tracker.leechers-paradise.org:6969/announce
  • udp://9.rarbg.to:2720/announce
  • udp://eddie4.nl:6969/announce
  • udp://9.rarbg.to:2720/announce
  • http://t.nyaatracker.com:80/announce
  • udp://tracker.doko.moe:6969/announce
  • udp://thetracker.org:80/announce
  • udp://bt.xxx-tracker.com:2710/announce
  • udp://tracker.vanitycore.co:6969/announce
  • http://tracker.city9x.com:2710/announce
  • udp://tracker.tiny-vps.com:6969/announce
  • http://retracker.telecom.by:80/announce
  • http://tracker.electro-torrent.pl:80/announce
  • udp://tracker.leechers-paradise.org:6969/announce
  • udp://tracker.opentrackr.org:1337/announce
  • http://open.kickasstracker.com:443/announce
  • udp://tracker.coppersurfer.tk:6969/announce
  • udp://open.stealth.si:80/announce
  • http://retracker.mgts.by:80/announce
  • udp://inferno.demonoid.pw:3418/announce
  • udp://retracker.lanta-net.ru:2710/announce
  • http://fxtt.ru:80/announce
  • udp://peerfect.org:6969/announce
  • udp://tracker.swateam.org.uk:2710/announce